16:9 progressive CIF proxed by Apache 150 Kbps (overall 284 Kbps) wrapped in an mpeg4 media base format (MBFF, ISO 14496-16) and stream as a MPEG2 (DVB) TS

In order to test the streaming capability, I've used a small portion (about 600 seconds) of the movie Home realised by Yann Arthus Bertrand in 2009, copyright Europa Corp, publicly viewable on many web sites. I've added a specific page with all the disclaimer and additional informations.

The video here embedded is the sequence of 25 progressive images per second.
This size and bandwidth is extremely good for mobile television
It has a Pixel Aspect Ratio of 64:45 (1.42, larger than standard PAR 1.33 - standard 4:3 -- but much smaller than 1.7 of 16:9) in order to obtain the Display Aspect Ratio of 16:9.


This above is only an image to remember that this page used to contain two different instances of the same embedded video, one doubled than the other.
The quality of the doubled one was all but good, with a heavy and noticeable backgroud noise. This is one reason for which decided to took it away.
Now I kept only the smaller (and original size) of these. I decided to take it away because it has been demostrated to be impossible to silet one of the two instances.
This is a normal side effect of the browser war, in which any browser does not fully implement the html code. As it is written here the volume control within the embed may not work. About the volume parameter, they say "use it, but don't rely on it".

Containing two instances of the same video object, opening firefox and internet explorer on the same pc, the overall draining from the server has metered as high as four time the stream bandwidth. The aspect was about this:

The spikes becomes higher opening internet explorer. Closing it the drain about halves to this:

It is the half of before, but the 0.50% means 5/1000 of 1 Gbps = 5 Mbps. Even though these are spikes, It's a lot for four instances of 284 Kbps each on the same machine.
It means that's really unicast.

stream info

The embedded stream can be directly loaded by VLC as http://www.iginomanfre.it/CIF_284.
The video is a h264 16:9 anamorphic 150 Kbps CBR 25 progressive frame per second with 128 Kbps AAC-LC stereo 48KHz audio compressed with Rhozet Carbon Coder. The mp4 MBFF (Media Base File Format) is extremely lighter than TS: about 10 Kbps vs about 150 Kbps of MPEG2 TS. It is stream with the VLC TS (DVB) engine because FLV streamer seems to suffer looping problems.

This is a live streaming, not based on a slice downloaded material (such as Dinamic streaming ones are).

The following is the mediainfo analysis of the file stream

General

Complete name : C:\video\Home 10' CIF 16.9 an. H264_25p_DAR16.9 PAR64.45_284.mp4
Format : MPEG-4
Format profile : Base Media / Version 2
Codec ID : mp42
File size : 20.3 MiB
Duration : 9mn 59s
Overall bit rate mode : Variable
Overall bit rate : 284 Kbps
Encoded date : UTC 2014-05-27 09:25:32
Tagged date : UTC 2014-05-27 09:25:32

Video

ID : 1
Format : AVC
Format/Info : Advanced Video Codec
Format profile : High@L3.1
Format settings, CABAC : Yes
Format settings, ReFrames : 4 frames
Format settings, GOP : M=3, N=60
Codec ID : avc1
Codec ID/Info : Advanced Video Coding
Duration : 9mn 59s
Bit rate mode : Constant
Bit rate : 150 Kbps
Width : 360 pixels
Height : 288 pixels
Display aspect ratio : 16:9
Frame rate mode : Constant
Frame rate : 25.000 fps
Color space : YUV
Chroma subsampling : 4:2:0
Bit depth : 8 bits
Scan type : Progressive
Bits/(Pixel*Frame) : 0.058
Stream size : 11.0 MiB (54%)
Language : English
Encoded date : UTC 2014-05-27 09:25:32
Tagged date : UTC 2014-05-27 09:25:32

Audio

ID : 2
Format : AAC
Format/Info : Advanced Audio Codec
Format profile : LC
Codec ID : 40
Duration : 9mn 59s
Bit rate mode : Variable
Bit rate : 125 Kbps
Maximum bit rate : 197 Kbps
Channel(s) : 2 channels
Channel positions : Front: L R
Sampling rate : 48.0 KHz
Compression mode : Lossy
Stream size : 8.97 MiB (44%)
Language : English
Encoded date : UTC 2014-05-27 09:25:32
Tagged date : UTC 2014-05-27 09:25:32